A New Life in Oz | Telugu Movies 2018 | Lagu Keroncong

Cosa dira la gente 2017 BDRip AC3 ITA CB Torrent Free Download

Seeders : 613   &   Leechers : 601      12-10-2018 (1 week)
Cosa dira la gente 2017 BDRip AC3 ITA CB Torrent Download
Added: ago by abnadem ***** in Movies   1.4 GB   Hits : 23
Info Hash: 85FEC0B90DBC22F06E5F4809095F6D3363868ECE Download
Cosa dira la gente 2017 BDRip AC3 ITA CB Torrent Download

Anonymous and Direct Download movies , software , shows...

Fast Safe Anonymous
movies, software, shows...

Torrent Description




Cosa dirà la gente (2017) AC3.BDRip


DRAMMATICO - DURATA 106' - NORVEGIA

La quindicenne Nisha vive una doppia vita. A casa, a Oslo, obbedisce alle
tradizioni e ai valori della sua famiglia pakistana ma, appena fuori, si
trasforma in una tipica adolescente norvegese. Un giorno, però, i suoi
due universi si scontrano brutalmente quando il padre la sorprende a
letto con il fidanzato norvegese...
+Info»

Report:

[ Info sul file ]

General

Complete name : Cosa.dira.la.gente.2017.BDRip.AC3.ITA.CB01.avi
Format : Matroska
Format version : Version 2
File size : 1.43 GiB
Duration : 1 h 47 min
Overall bit rate : 1 903 kb/s
Movie name : CineBlog01HD
Encoded date : UTC 2018-10-11 09:16:54 / UTC 2018-10-11 09:16:54
Writing application : Lavf54.63.104
Writing library : Lavf54.63.104
FileExtension_Invalid : mkv mk3d mka mks

Video
ID : 1
Format : MPEG-4 Visual
Format profile : [email protected]
Format settings, BVOP : No
Format settings, QPel : No
Format settings, GMC : No warppoints
Format settings, Matrix : Default (H.263)
Codec ID : V_MPEG4/ISO/ASP
Codec ID/Info : Advanced Simple Profile
Duration : 1 h 47 min
Bit rate : 1 225 kb/s
Width : 720 pixels
Height : 304 pixels
Display aspect ratio : 2.35:1
Frame rate mode : Constant
Frame rate : 24.000 FPS
Color space : YUV
Chroma subsampling : 4:2:0
Bit depth : 8 bits
Scan type : Progressive
Compression mode : Lossy
Bits/(Pixel*Frame) : 0.233
Stream size : 943 MiB (64%)
Writing library : Lavc54.92.100
Default : Yes
Forced : No

Audio
ID : 2
Format : AC-3
Format/Info : Audio Coding 3
Format settings, Endianness : Big
Codec ID : A_AC3
Duration : 1 h 47 min
Bit rate mode : Constant
Bit rate : 640 kb/s
Channel(s) : 6 channels
Channel positions : Front: L C R, Side: L R, LFE
Sampling rate : 48.0 kHz
Frame rate : 31.250 FPS (1536 SPF)
Bit depth : 16 bits
Compression mode : Lossy
Stream size : 493 MiB (34%)
Service kind : Complete Main
Default : Yes
Forced : No

Rapporto creato da AVInaptic (18-12-2011) in data 11-10-2018 12:42:51




Sharing Widget


No Comments For This Torrent . Be The First to Comment

You must Login to Comment . Click Here to Login

Menu 1

Some content in menu 1.

Cosa dira la gente 2017 BDRip AC3 ITA CB01 avi (Size: 1.4 GB)
  Cosa dira la gente 2017 BDRip AC3 ITA CB01 avi 1.4 GB
tracker name
udp://tracker.leechers-paradise.org:6969/announce
udp://zer0day.ch:1337/announce
udp://open.demonii.com:1337/announce
udp://tracker.coppersurfer.tk:6969/announce
udp://exodus.desync.com:6969/announce
µTorrent compatible trackers list

Relative Torrents

Torrent Name Size Age SEED LEECH
Madelines Madeline 2018 720p WEB-DL XviDAC3-FGT
Posted by    Trige   in   Movies
2.7 GB 2 minutes 848 593
Rabbit 2017 WEB-DL XviD MP3-FGT
Posted by    Trige   in   Movies
1.6 GB 8 minutes 440 222
Rabbit 2017 WEB-DL XviD AC3-FGT
Posted by    Trige   in   Movies
1.7 GB 8 minutes 890 875
Knight Squad S01E16 Fright Knight 1080p ICK WEBRip AAC2 0 x264-LAZY
Posted by    LazyRips   in   TV
807.0 MB 16 minutes 136 135
Black Panther IMAX (2018) 1080p BluRay x64 Atmos KK650 Regraded
Posted by    themagicman   in   Movies
23.2 GB 20 minutes 65 531