Dirt Bikes Super Racing Racing | Bobby Cannavale Paxton | Tim Anh Thắt Lại

Fanney Khan (2018) Hindi - 720p - HDRip Torrent Free Download

Seeders : 92   &   Leechers : 629      11-10-2018 (1 week)
Fanney Khan (2018) Hindi - 720p - HDRip Torrent Download
Added: ago by MovCr ***** in Movies   1.3 GB   Hits : 18
Info Hash: 29D6A2F7122491916D66EA45A260A32998D5B921 Download
Fanney Khan (2018) Hindi - 720p - HDRip Torrent Download

Anonymous and Direct Download movies , software , shows...

Fast Safe Anonymous
movies, software, shows...
Fanney Khan
Drama   .   N/A   N/A/10
Starring : Drama  
Director : N/A  
Writer: N/A  
Tags: Fanney  Khan  (2018)  Hindi  -  720p  

Released:
N/A
Fanney Khan is a struggling singer who wants to make his daughter a big name in music world.

Torrent Description



http://movcr.cc/

Fanney Khan (2018) Hindi - 720p - HDRip - x264 - 1.4GB - AAC - ESub - MovCr




Video
ID : 1
Format : AVC
Format/Info : Advanced Video Codec
Format profile : [email protected]
Format settings : CABAC / 4 Ref Frames
Format settings, CABAC : Yes
Format settings, RefFrames : 4 frames
Codec ID : V_MPEG4/ISO/AVC
Duration : 2 h 9 min
Bit rate : 1 384 kb/s
Width : 1 280 pixels
Height : 544 pixels
Display aspect ratio : 2.35:1
Frame rate mode : Constant
Frame rate : 23.976 (23976/1000) FPS
Color space : YUV
Chroma subsampling : 4:2:0
Bit depth : 8 bits
Scan type : Progressive
Bits/(Pixel*Frame) : 0.083
Stream size : 1.23 GiB (91%)
Title : www.MovCr.cc
Writing library : x264 core 155 r2901 7d0ff22
Encoding settings : cabac=1 / ref=1 / deblock=1:0:0 / analyse=0x3:0x113 / me=hex / subme=2 / psy=1 / psy_rd=1.00:0.00 / mixed_ref=0 / me_range=16 / chroma_me=1 / trellis=0 / 8x8dct=1 / cqm=0 / deadzone=21,11 / fast_pskip=1 / chroma_qp_offset=0 / threads=12 / lookahead_threads=4 / sliced_threads=0 / nr=0 / decimate=1 / interlaced=0 / bluray_compat=0 / constrained_intra=0 / bframes=3 / b_pyramid=2 / b_adapt=1 / b_bias=0 / direct=1 / weightb=1 / open_gop=0 / weightp=1 / keyint=240 / keyint_min=24 / scenecut=40 / intra_refresh=0 / rc_lookahead=10 / rc=abr / mbtree=1 / bitrate=1384 / ratetol=1.0 / qcomp=0.60 / qpmin=0 / qpmax=69 / qpstep=4 / vbv_maxrate=62500 / vbv_bufsize=78125 / nal_hrd=none / filler=0 / ip_ratio=1.40 / aq=1:1.00
Default : Yes
Forced : No
Color range : Limited
Color primaries : BT.709
Transfer characteristics : BT.709
Matrix coefficients : BT.709

Audio
ID : 2
Format : AAC LC
Format/Info : Advanced Audio Codec Low Complexity
Codec ID : A_AAC-2
Duration : 2 h 9 min
Bit rate : 127 kb/s
Channel(s) : 2 channels
Channel layout : L R
Sampling rate : 44.1 kHz
Frame rate : 43.066 FPS (1024 SPF)
Compression mode : Lossy
Delay relative to video : -23 ms
Stream size : 118 MiB (9%)
Title : www.MovCr.cc
Default : Yes
Forced : No

Text
ID : 3
Format : UTF-8
Codec ID : S_TEXT/UTF8
Codec ID/Info : UTF-8 Plain Text
Duration : 2 h 6 min
Bit rate : 49 b/s
Count of elements : 2041
Stream size : 45.6 KiB (0%)
Title : www.MovCr.cc
Default : Yes
Forced : No










Sharing Widget


No Comments For This Torrent . Be The First to Comment

You must Login to Comment . Click Here to Login

Menu 1

Some content in menu 1.

Fanney Khan (2018) Hindi - 720p - HDRip - x264 - 1 4GB - AAC - ESub - (Size: 1.3 GB)
  Fanney Khan (2018) Hindi - 720p - HDRip - x264 - 1 4GB - AAC - ESub - 1.3 GB
tracker name
udp://tracker.leechers-paradise.org:6969/announce
udp://zer0day.ch:1337/announce
udp://open.demonii.com:1337/announce
udp://tracker.coppersurfer.tk:6969/announce
udp://exodus.desync.com:6969/announce
µTorrent compatible trackers list

Relative Torrents

Torrent Name Size Age SEED LEECH
Urban Legends Bloody Mary 2005 1080p Bluay x264 DD2 0-FGT
Posted by    Trige   in   Movies
7.8 GB 4 minutes 415 797
The Rachel Maddow Show 2018 10 18 720p MBC WEB-DL AAC2 0 x264-BTW[TGx]
Posted by    mazemaze16   in   TV
856.3 MB 7 minutes 931 290
House Hunters S151E07 Looking for a Famiy Home in Boston WEB h264-CAFFEiNE
Posted by    Trige   in   TV
268.8 MB 7 minutes 290 280
House Hunters S151E07 Looking for a Famiy Home in Boston 1080p WEB h264-CAFFEiN
Posted by    Trige   in   TV
667.6 MB 7 minutes 303 706
Simon Schama's Rough Crossings (1280x720 HD, 50fps, soft Eng subs)
Posted by    ElsonRoa   in   TV
3.0 GB 7 minutes 997 248