100 Degrees Below Zero (2013) | Animation | A freira

Fanney Khan (2018) Hindi Proper True HQ Torrent Free Download

Seeders : 627   &   Leechers : 662      12-10-2018 (1 week)
Fanney Khan (2018) Hindi Proper True HQ Torrent Download
Added: ago by ictv ***** in Movies   717.5 MB   Hits : 23
Info Hash: 0EE1B6E51F5FD2EFE06B4C908865AD8DF7565424 Download
Fanney Khan (2018) Hindi Proper True HQ Torrent Download

Anonymous and Direct Download movies , software , shows...

Fast Safe Anonymous
movies, software, shows...
Fanney Khan
Drama   .   N/A   N/A/10
Starring : Drama  
Director : N/A  
Writer: N/A  
Tags: Fanney  Khan  (2018)  Hindi  Proper  True  

Released:
N/A
Fanney Khan is a struggling singer who wants to make his daughter a big name in music world.

Torrent Description



http://movcr.cc

Fanney Khan (2018) Hindi Proper True HQ HDRip x264 MP3 700MB ESub - MovCr



http://www.imdb.com/title/tt6384386/




General
Unique ID : 177523442628353856713590628987216404536 (0x858DC57A6564022A7D4024F17E992038)
Complete name : www.MovCr.cc - Fanney Khan (2018) Hindi Proper True HQ HDRip x264 MP3 700MB ESub - MovCr.mkv
Format : Matroska
Format version : Version 4 / Version 2
File size : 718 MiB
Duration : 2 h 9 min
Overall bit rate : 776 kb/s
Movie name : www.MovCr.cc
Encoded date : UTC 2018-10-11 18:59:59 / UTC 2018-10-11T18:36:10Z
Writing application : mkvmerge v26.0.0 ('In The Game') 64-bit
Writing library : libebml v1.3.6 + libmatroska v1.4.9 / Lavf57.7.2

Video
ID : 1
Format : AVC
Format/Info : Advanced Video Codec
Format profile : [email protected]
Format settings : CABAC / 4 Ref Frames
Format settings, CABAC : Yes
Format settings, RefFrames : 4 frames
Codec ID : V_MPEG4/ISO/AVC
Duration : 2 h 9 min
Bit rate : 702 kb/s
Width : 720 pixels
Height : 306 pixels
Display aspect ratio : 2.35:1
Frame rate mode : Constant
Frame rate : 23.976 (23976/1000) FPS
Color space : YUV
Chroma subsampling : 4:2:0
Bit depth : 8 bits
Scan type : Progressive
Bits/(Pixel*Frame) : 0.133
Stream size : 629 MiB (88%)
Title : www.MovCr.cc
Writing library : x264 core 155 r2901 7d0ff22
Encoding settings : cabac=1 / ref=2 / deblock=1:0:0 / analyse=0x3:0x113 / me=hex / subme=6 / psy=1 / psy_rd=1.00:0.00 / mixed_ref=1 / me_range=16 / chroma_me=1 / trellis=1 / 8x8dct=1 / cqm=0 / deadzone=21,11 / fast_pskip=1 / chroma_qp_offset=-2 / threads=10 / lookahead_threads=1 / sliced_threads=0 / nr=0 / decimate=1 / interlaced=0 / bluray_compat=0 / constrained_intra=0 / bframes=3 / b_pyramid=2 / b_adapt=1 / b_bias=0 / direct=1 / weightb=1 / open_gop=0 / weightp=1 / keyint=240 / keyint_min=24 / scenecut=40 / intra_refresh=0 / rc_lookahead=30 / rc=abr / mbtree=1 / bitrate=702 / ratetol=1.0 / qcomp=0.60 / qpmin=0 / qpmax=69 / qpstep=4 / ip_ratio=1.40 / aq=1:1.00
Default : Yes
Forced : No
Color range : Limited
Color primaries : BT.709
Transfer characteristics : BT.709
Matrix coefficients : BT.709
Statistics Tags Issue : mkvmerge v26.0.0 ('In The Game') 64-bit 2018-10-11 18:59:59 / mkvmerge v26.0.0 ('In The Game') 64-bit 2018-10-11 18:59:59 / UTC 2018-10-11T18:36:10Z
FromStats_BitRate : 693821
FromStats_Duration : 02:09:16.529000000
FromStats_FrameCount : 185924
FromStats_StreamSize : 672705667

Audio
ID : 2
Format : MPEG Audio
Format version : Version 1
Format profile : Layer 3
Format settings : Joint stereo / MS Stereo
Codec ID : A_MPEG/L3
Codec ID/Hint : MP3
Duration : 2 h 9 min
Bit rate mode : Constant
Bit rate : 80.0 kb/s
Channel(s) : 2 channels
Sampling rate : 44.1 kHz
Compression mode : Lossy
Stream size : 74.0 MiB (10%)
Title : www.MovCr.cc
Writing library : LAME3.100
Default : Yes
Forced : No
Statistics Tags Issue : mkvmerge v26.0.0 ('In The Game') 64-bit 2018-10-11 18:59:59 / mkvmerge v26.0.0 ('In The Game') 64-bit 2018-10-11 18:59:59 / UTC 2018-10-11T18:36:10Z
FromStats_BitRate : 80000
FromStats_Duration : 02:09:16.538000000
FromStats_FrameCount : 296930
FromStats_StreamSize : 77565388

Text
ID : 3
Format : UTF-8
Codec ID : S_TEXT/UTF8
Codec ID/Info : UTF-8 Plain Text
Title : www.MovCr.cc
Language : English
Default : Yes
Forced : No
Statistics Tags Issue : mkvmerge v26.0.0 ('In The Game') 64-bit 2018-10-11 18:59:59 / mkvmerge v26.0.0 ('In The Game') 64-bit 2018-10-11 18:59:59 / UTC 2018-10-11T18:36:10Z
FromStats_BitRate : 49
FromStats_Duration : 02:06:44.870000000
FromStats_FrameCount : 2041
FromStats_StreamSize : 46695










Sharing Widget


No Comments For This Torrent . Be The First to Comment

You must Login to Comment . Click Here to Login

Menu 1

Some content in menu 1.

Fanney Khan (2018) Hindi Proper True HQ HDRip x264 MP3 700MB ESub - Mo (Size: 717.5 MB)
  Fanney Khan (2018) Hindi Proper True HQ HDRip x264 MP3 700MB ESub - Mo 717.5 MB
tracker name
udp://tracker.leechers-paradise.org:6969/announce
udp://zer0day.ch:1337/announce
udp://open.demonii.com:1337/announce
udp://tracker.coppersurfer.tk:6969/announce
udp://exodus.desync.com:6969/announce
µTorrent compatible trackers list

Relative Torrents

Torrent Name Size Age SEED LEECH
Figaro And Cleo (1943)-Walt Disney-1080pH264-AC 3 (DolbyDigital-5 1) Remastered
Posted by    nickarad   in   Movies
222.6 MB 6 minutes 822 535
Rabbit 2017 Movies 720p HDRip x264 AAC wth Sample ☻rDX☻
Posted by    nehalpuja   in   Movies
808.4 MB 6 minutes 581 415
DuckTales (2017) S02E01 The Most Dangeros Game Night! 1080p WEB-DL AAC2 0 H 2
Posted by    LazyRips   in   TV
845.6 MB 10 minutes 142 122
The Block AU S14E45 480p x264-mSD [eztv]
Posted by    EZTVag   in   TV
300.1 MB 10 minutes 425 561
Pacific Rim (2013)-Idris Elba-1080p-H264AC 3 (DolbyDigital-5 1) DEMO & nickarad
Posted by    nickarad   in   Movies
2.5 GB 12 minutes 182 666