Ashampoo Internet Ac | Nathan for You | Tim Kellner

Goosebumps (2015) x 1600 (2160p) HDR 5 1 Torrent Free Download

Seeders : 298   &   Leechers : 830      11-10-2018 (1 week)
Goosebumps (2015) x 1600 (2160p) HDR 5 1 Torrent Download
Added: ago by PhunPsyz ***** in Movies   2.7 GB   Hits : 33
Info Hash: EEAF30EB017487DC5E1F049273BCFBDA40F00C2F Download
Goosebumps (2015) x 1600 (2160p) HDR 5 1 Torrent Download

Anonymous and Direct Download movies , software , shows...

Fast Safe Anonymous
movies, software, shows...
Goosebumps
Adventure /Comedy /Family  .   103 min   6.3/10
Starring : Jack Black  Dylan Minnette  Odeya Rush  Ryan Lee  
Director : Rob Letterman  
Tags: Goosebumps  (2015)  x  1600  (2160p)  HDR  

Released:
16 Oct 2015
First this is all about monsters and any kind of supernatural .After going to a new small town,the teenager boy Zach Cooper (Dylan Minnette) he meets the beautiful girl, Hannah (Odeya Rush), living right next door. But every silver lining has a cloud, and Zach's co.... See More mes when he learns that Hannah has a mysterious dad who is revealed to be R. L. Stine (Jack Black), the author of the bestselling Goosebumps series. It turns out that there is a reason why Stine is so strange... he is a prisoner of his own imagination - the monsters that his books made famous are real, and Stine protects his readers by keeping them locked up in their books. Zach unintentionally unleashes the monsters from their manuscripts and they begin to terrorize the town, it's suddenly up to Stine, Zach, Hannah, and Zach's friend Champ (Ryan Lee) they all do their best to back all of the monsters in the book.

Torrent Description



www.imdb.com/title/tt1051904/

A teenager teams up with the daughter of young adult horror author R. L. Stine after the writer's imaginary demons are set free on the town of Madison, Delaware.

Source: GasMask HDR







Format : Matroska
Format version : Version 4 / Version 2
File size : 2.67 GiB
Duration : 1 h 43 min
Overall bit rate : 3 704 kb/s

Video
ID : 1
Format : HEVC
Format/Info : High Efficiency Video Coding
Format profile : Main [email protected]@High
Codec ID : V_MPEGH/ISO/HEVC
Duration : 1 h 43 min
Bit rate : 3 311 kb/s
Width : 3 840 pixels
Height : 1 600 pixels
Display aspect ratio : 2.40:1
Frame rate mode : Constant
Frame rate : 23.976 (24000/1001) FPS
Color space : YUV
Chroma subsampling : 4:2:0
Bit depth : 10 bits
Bits/(Pixel*Frame) : 0.022
Stream size : 2.39 GiB (89%)
Writing library : x265 2.6:[Windows][GCC 7.1.0][64 bit] 10bit

Audio
ID : 2
Format : AC-3
Format/Info : Audio Coding 3
Commercial name : Dolby Digital
Codec ID : A_AC3
Duration : 1 h 43 min
Bit rate mode : Constant
Bit rate : 320 kb/s
Channel(s) : 6 channels
Channel layout : L R C LFE Ls Rs
Sampling rate : 48.0 kHz
Frame rate : 31.250 FPS (1536 SPF)
Bit depth : 16 bits
Compression mode : Lossy
Stream size : 236 MiB (9%)
Title : Surround
Language : English

Text
Language : English
Language : French
Language : German
Default : No
Forced : No




Sharing Widget


No Comments For This Torrent . Be The First to Comment

You must Login to Comment . Click Here to Login

Menu 1

Some content in menu 1.

Goosebumps (2015) x 1600 (2160p) HDR 5 1 x265 10bit Phun Psyz (Size: 2.7 GB)
  Goosebumps (2015) x 1600 (2160p) HDR 5 1 x265 10bit Phun Psyz 2.7 GB
tracker name
udp://tracker.leechers-paradise.org:6969/announce
udp://zer0day.ch:1337/announce
udp://open.demonii.com:1337/announce
udp://tracker.coppersurfer.tk:6969/announce
udp://exodus.desync.com:6969/announce
µTorrent compatible trackers list

Relative Torrents

Torrent Name Size Age SEED LEECH
Run Lola Run 1998 BRRip XviD MP3-XVID
Posted by    Trige   in   Movies
1.0 GB 1 minute 620 540
My Old Lady 2014 LIMITED 1080p BluRay x24-SECTOR7
Posted by    Trige   in   Movies
7.7 GB 4 minutes 607 802
The Conners S01E01 1080p WEB H264-MEMENT[TGx]
Posted by    mazemaze16   in   TV
785.1 MB 5 minutes 374 923
Pointless Celebrities S11E15 720p WEB h24-KOMPOST [eztv]
Posted by    EZTVag   in   TV
1.5 GB 5 minutes 210 632
Power Rangers S25E18 Monster Mix-Up 720pNICK WEB-DL AAC2 0 H 264 [eztv]
Posted by    EZTVag   in   TV
488.4 MB 10 minutes 511 773